#TITLE:Fan;
#SUBTITLE:;
#ARTIST:Epik High;
#TITLETRANSLIT:;
#SUBTITLETRANSLIT:;
#ARTISTTRANSLIT:Epik High;
#CREDIT:;
#BANNER:Fan-bn.png;
#BACKGROUND:Fan-bg.png;
#LYRICSPATH:;
#CDTITLE:pm4cd.png;
#MUSIC:Fan.mp3;
#OFFSET:0.000;
#SAMPLESTART:137.750;
#SAMPLELENGTH:20.000;
#SELECTABLE:YES;
#BPMS:0.000=166.000;
#STOPS:;
#BGCHANGES:;
// cache tags:
#FIRSTBEAT:0.000;
#LASTBEAT:613.000;
#SONGFILENAME:Songs/Music V.I.P ^_^/Fan/Fan.sm;
#HASMUSIC:1;
#HASBANNER:1;
#MUSICLENGTH:224.789;
// end cache tags

//---------------dance-single - ----------------
#NOTES:
     dance-single:
     :
     Hard:
     18:
     1.000,1.000,1.000,0.125,1.000,1652.000,533.000,28.000,0.000,190.000:
0001
0000
0100
1000
0000
0010
0100
0001
,
0010
0000
0000
0000
1000
0000
0100
0100
0010
0001
0001
0010
0100
0100
0010
0001
,
0010
0000
0100
1000
0000
0100
0010
0000
,
1000
0000
0010
0000
0001
0000
0010
0010
0100
1000
1000
0100
0010
0010
0100
1000
,
0100
0000
0100
0001
0000
0010
1000
0001
,
0100
0000
0000
0000
1000
0000
0001
0000
0100
0100
0010
0001
0001
0010
0100
0100
,
0010
0000
0010
0001
0000
0100
1000
0100
,
1011
0000
1001
0000
0011
0000
1100
0001
0110
1000
0011
1000
0110
0001
1100
1000
,
1111
1000
1010
0100
0011
0100
1001
0110
,
1001
0010
0100
0001
1010
0100
0011
0010
,
0101
0011
0110
1100
0110
0011
0110
1100
,
0111
0001
1100
0010
0101
1000
1100
0010
,
0110
1001
0110
1010
0101
1010
0011
1100
,
1011
0100
0010
1000
0101
0010
0100
0001
,
1010
0100
0001
0010
1100
0010
1000
0100
,
0011
0100
0011
0100
0011
0100
0011
0100
,
1111
0100
1000
0010
0100
0001
1010
0100
1000
0001
0010
0100
,
1001
0100
0010
0100
1000
0010
0101
1000
0010
0100
0001
0010
,
1001
0100
0010
0001
0100
1000
0011
1000
0100
0010
0001
0010
,
1001
0010
0100
1000
0100
1000
0101
0010
0001
0010
0001
0010
,
1001
0010
0100
1000
0010
0100
0001
0010
0100
1000
0100
0010
,
1001
0100
1000
0100
0010
0001
1010
0100
1000
0010
0100
0001
,
0110
1000
0100
0010
0001
0100
0011
0100
1000
0010
0100
0001
,
1010
0100
1000
0100
0010
0001
1100
0010
1000
0100
0010
0001
,
1100
0001
0100
0010
1000
0100
0011
0100
0010
0100
1000
0100
,
1001
0010
0001
0010
0100
1000
0110
1000
0100
0010
0100
0010
,
1100
0001
0010
0100
1000
0100
1001
0010
0100
0001
0100
0010
,
1100
0001
0010
1100
0010
0001
1100
0001
0010
1100
0010
0001
,
1100
0001
0100
0010
1000
0100
1010
0001
0100
1000
0001
0100
,
0011
1000
0100
0010
0001
0010
0101
1000
0010
0100
0001
1000
,
0110
1000
0010
0001
0100
0010
1001
0100
0001
0010
1000
0100
,
0011
0100
1000
0011
1000
0100
0011
0100
1000
0011
1000
0100
,
0011
0100
1000
0010
1000
0100
1010
0100
0001
0010
0100
0010
,
1001
0010
0100
0010
0001
0100
0011
0100
1000
0001
0100
1000
,
0011
0100
0001
0100
0010
1000
0101
0010
0100
0001
0100
0010
,
1100
0001
0001
1100
0010
0010
1100
0001
0001
1100
0010
0010
,
1100
0001
1000
0100
0010
1000
0101
0010
0100
0001
0100
1000
,
0011
0100
0001
0100
1000
0100
1010
0100
0010
0001
0010
1000
,
0110
0001
0010
0100
1000
0010
1100
0001
0010
0001
0100
1000
,
0011
0100
0100
0011
1000
1000
0011
0100
0100
0011
1000
1000
,
0011
0100
0001
0100
1000
0010
0101
0010
0100
1000
0001
0010
,
1001
0010
0100
0010
0001
0010
0101
1000
0010
0100
0001
0010
,
1100
0010
0001
0010
0100
1000
0101
0010
0001
0100
0010
1000
,
0110
0001
0100
0010
0001
0010
1100
0010
0001
1000
0100
0010
,
1001
0100
0001
0010
1000
0100
1010
0001
0100
0010
1000
0001
,
1010
0100
0010
0001
1000
0100
0011
0100
0001
0010
1000
0001
,
0110
0001
0010
1000
0100
0010
0001
0010
0100
1000
0100
0010
,
2202
0000
0000
3303
1010
0000
0001
0000
1100
0000
0010
0000
1001
0000
0100
0000
,
1111
1000
0100
0010
1001
0010
0100
1000
0101
0010
0001
0010
0101
1000
0100
0010
,
1001
0010
0100
1000
0101
0000
1000
0000
0011
0000
0100
0000
1010
0000
0001
0000
,
1100
0001
0010
0100
1001
0100
0010
0001
1010
0100
1000
0100
1010
0001
0010
0100
,
1001
0010
0101
0010
1100
0001
1010
0100
,
1001
0010
0100
1000
0101
0010
0001
0010
0101
1000
0100
0010
1001
0010
0100
1000
,
0101
1000
0011
0100
1010
0001
1100
0010
,
0101
1000
1100
0010
0110
0010
0011
0001
,
0101
0100
1100
0010
0101
0100
0011
1000
,
1101
0010
0100
1000
0111
1000
0100
0010
1101
0010
0100
1000
0111
1000
0100
0010
,
1101
0010
1100
0001
0110
1000
0101
1000
,
0111
1000
0100
0010
1101
0010
0100
1000
0111
1000
0100
0010
1101
0010
0100
1000
,
0111
0010
1100
0010
1010
0100
0101
0010
,
1101
0001
0010
0100
1011
0100
0010
0001
1110
0001
0010
0100
1011
0100
0010
0001
,
1110
0001
1100
0010
0101
0100
1100
0001
,
1010
0100
0011
0001
1010
0100
0011
0000
,
0200
0320
0032
0023
0230
2300
3200
0320
,
1131
1000
0010
0100
1000
0010
1100
0001
1000
0100
0010
0001
,
1010
0100
0001
1010
0100
1000
0011
0100
0001
1000
0100
0010
,
1001
0100
0010
1001
0100
0001
1010
0100
1000
0010
1000
0100
,
1011
0100
0010
1101
0010
0100
1011
0100
0010
1101
0010
0100
,
1011
0100
0010
1000
0001
0100
1010
0001
0000
0000
0000
0100
,
0011
1000
0100
0011
1000
0010
0101
0010
1000
0010
0001
1000
,
0101
0010
0100
0001
0010
0100
0011
0100
1000
0100
0010
0001
,
1110
0001
1000
0111
1000
0001
1110
0001
1000
0111
1000
0001
,
1110
0001
1000
0100
0010
0001
1010
0100
0001
0010
1000
0001
,
1100
0010
0100
0011
1000
0100
1001
0010
0100
0010
0001
0100
,
1010
0100
0001
1010
0001
1000
0101
0010
1000
0001
0100
0010
,
1101
0010
0100
1011
1011
0010
1101
1101
0100
1011
1011
0100
,
1101
0010
1000
0100
0010
1000
0011
0100
1000
0010
0001
1000
,
0110
0001
1000
0110
0001
1000
0101
0010
0001
0100
0010
1000
,
0011
1000
0100
0011
1000
0010
0101
1000
0010
1000
0100
0001
,
1110
0001
0100
1011
0100
0001
1110
0001
0100
1011
0100
0001
,
1110
0001
0100
1000
0010
0100
0011
1000
0100
0010
0100
0001
,
1010
0001
0010
0100
1000
0100
0011
0100
0010
0001
0100
0001
,
1100
0010
1000
0100
0001
1000
0101
0010
0100
0001
0100
0010
,
1101
0010
1000
0111
0111
1000
1101
1101
0010
1110
1110
0001
,
1101
0010
1000
0100
0010
0100
0011
0100
0001
0010
0100
1000
,
0101
0010
1000
0101
1000
0001
0110
0001
0100
0001
1000
0100
,
0011
1000
0100
0011
0100
0010
1001
0010
0100
1000
0010
0100
,
1011
0100
1000
0111
1000
0100
1011
0100
1000
0111
1000
0100
,
1011
0100
0010
1000
0001
0010
1100
0010
0100
0010
1000
0100
,
1001
0100
0010
1001
0100
1000
0110
0001
0010
0100
1000
0010
,
1100
0001
1000
0100
0010
0100
1010
0001
0010
0100
0010
1000
,
0111
1000
0001
1110
0001
1000
0111
1000
0001
1110
0001
1000
,
0111
2000
0100
0010
0001
0010
3101
0010
0100
1000
0100
0010
,
1001
0010
0100
1001
0100
1000
0011
0100
1000
0100
0010
0001
,
1010
0000
0100
0000
0010
0000
1000
0000
0001
0000
0010
0000
2000
0000
0000
0200
0000
0000
3020
0000
0000
0300
0000
0000
,
1131
0010
1100
0001
0101
0010
0110
1000
,
0111
1000
0100
0010
1001
0010
0100
1000
0101
0010
0001
0010
0101
1000
0100
0010
,
1100
0001
0011
0100
1010
0100
0011
1000
,
0110
0001
0010
0100
1001
0100
0010
0001
1010
0100
0010
0001
1010
0001
0010
0100
,
1001
1000
1001
0010
0101
0010
1100
0010
,
1001
0100
0010
0001
1010
0100
1000
0100
1010
0001
0010
0100
1001
0100
0010
0001
,
0110
1000
0101
0010
1100
0001
0110
1000
,
1100
0010
0101
0010
0110
0100
1100
0001
,
0110
0001
0110
1000
0110
1000
0110
1000
,
0111
1000
0100
0010
1101
0010
0100
1000
0111
1000
0100
0010
1101
0010
0100
1000
,
0111
1000
0101
0010
1100
0001
0011
0010
,
1110
0001
0010
0100
1011
0100
0010
0001
1110
0001
0010
0100
1011
0100
0010
0001
,
1110
0001
0101
0010
1100
0100
0101
0010
,
1101
0010
0100
1000
0111
1000
0100
0010
1101
0010
0100
1000
0111
1000
0100
0010
,
1101
0010
1001
0100
0011
0100
1010
0100
,
0011
0001
0101
0010
1100
0001
0101
0001
,
1100
1010
0101
1100
0011
0101
1010
0011
,
2110
0001
0000
0100
0010
0000
3001
0100
,
1002
0000
0100
0000
0010
0000
0100
0000
1000
0100
0010
0100
1003
0100
0010
0001
,
1020
0000
0100
0001
0000
1000
0100
1030
,
0201
0000
0000
0000
0010
0000
1000
0000
0010
0001
0010
1000
0310
0001
0010
0100
,
1002
0000
0100
0010
0000
1000
0103
0010
,
2100
0000
0001
0000
0010
0000
0100
0000
0010
0001
0010
0100
3010
0001
0010
0100
,
0021
0000
0100
0001
0000
0100
1030
0001
,
0220
0000
0000
0000
1000
0000
0001
0000
1030
0010
0001
1000
0010
0001
0010
1000
,
1311
1000
0100
0010
1101
0010
0001
0100
1011
0100
0001
1000
0111
1000
0010
0100
,
1011
0001
1100
0110
0011
0110
1100
0110
,
1011
0100
0001
0010
1101
0010
0100
1000
0111
1000
0001
0010
1101
0010
0001
0100
,
1011
0100
1001
1010
1001
0101
1001
1010
,
1110
0001
0010
0100
1011
0100
0001
1000
0111
1000
0001
0100
1011
0100
0010
0001
,
1110
0010
1100
0100
0110
0010
1001
0001
,
1101
0010
1000
0100
1011
0100
0001
0010
1101
0010
1000
0010
1101
0000
1000
0000
,
0111
0010
1110
0001
1101
0100
1011
0001
,
1110
0001
0010
0100
1011
0001
0010
0100
1110
0010
1000
0100
1011
0010
1000
0100
,
0111
1000
1110
0001
0111
0100
1011
0100
,
1101
0010
0100
1000
1110
1000
0100
0010
1101
0001
0010
0100
0111
1000
0100
0010
,
1101
0100
1011
1000
0111
0001
1110
0100
,
1101
0010
1000
0100
1011
0010
0100
1000
0111
0100
0010
0001
1110
0010
1000
0100
,
1011
0100
1011
0001
1110
0100
0111
1000
,
1011
0100
0010
0001
1110
0100
1000
0100
1011
0001
0010
0100
0111
1000
0100
0010
,
1101
1101
1101
0100
1011
1011
1011
1011
,
1111
0110
1100
0110
0111
0110
1001
0110
,
1011
0101
1011
0101
1011
0101
1011
0101
,
1111
0100
0010
1111
0100
0010
1111
1001
,
1001
0000
0011
0100
1010
0100
0011
0100
1001
0010
1100
0010
0101
0010
1100
0001
,
1110
0101
1010
1100
0101
0110
1110
0011
,
1110
0011
0111
1100
0111
0011
1110
1100
,
1111
1000
0001
1111
1000
0001
1111
1010
,
0101
0000
1001
0100
0011
0100
1010
0100
0011
1000
0101
0010
1100
0010
0101
1000
,
0111
1100
0011
0110
1101
0011
1100
0110
,
1110
0110
0111
0110
1110
0110
0111
0110
,
1111
0010
0100
1111
0100
0010
1111
0011
,
1100
0000
1001
0100
0011
0100
1010
0001
0110
1000
0101
0010
1100
0010
0101
0010
,
1101
0011
0110
1001
1101
0101
0110
1010
,
1011
0101
1011
0101
1011
0101
1011
0100
,
1111
0001
1000
1111
1000
0001
1111
0101
,
1011
1101
1011
1110
0111
1110
1101
1011
,
2222
0000
0000
0000
,
0000
3333
0000
0000
;

//---------------dance-single - ----------------
#NOTES:
     dance-single:
     :
     Medium:
     1:
     0.000,0.000,0.000,0.000,0.000,0.000,0.000,0.000,0.000,0.000:
0000
0000
0000
0000
;

//---------------dance-single - ----------------
#NOTES:
     dance-single:
     :
     Easy:
     1:
     0.000,0.000,0.000,0.000,0.000,0.000,0.000,0.000,0.000,0.000:
0000
0000
0000
0000
;
